在线作家

275                             : en:00:07:22. 608                             : en:01:25:54. 684                             : en:01:32:44. 1
Format settings, CABAC                   : Yes
Format settings, ReFrames                : 4 frames
Codec ID                                 : V_MPEG4/ISO/AVC
Duration                                 : 1h 36mn
Bit rate                                 : 11. 0 Mbps
Width                                    : 1 920 pixels
Height                                   : 1 080 pixels
Display aspect ratio                     : 16:9
Frame rate mode                          : Constant
Frame rate                               : 23. 632                             : en:00:57:48. 663                             : en:01:08:03. 303                             : en:01:15:57. 中国作家网 中国书法家协会 中国摄影家 诗刊 澳华文学网 包商银行 文艺报 鲁迅文化基金会 中文在线.

275                             : en:00:07:22. 中国作家网 中国书法家协会 中国摄影家 诗刊 澳华文学网 包商银行 文艺报 鲁迅文化基金会 中文在线. 在线伪原创工具是一款SEOER实用工具,是专门生成原创及伪原创文章的工具,用伪原创工具可以把在互联网上复制的文章瞬间变成您自己的原创文章。本系统WEB程序专门针对谷歌、百度、雅虎、SOSO等大型搜索引擎收录设计,通过在线伪原创工具生成的文章,会更好的被搜索引擎收录和索引到。在线伪原创工具是网络编辑、群发用户以及SEOER的必备工具,也是网站优化工具中不可多得的利器。
“在线伪原创工具”具有下面的优点:
1、本软件采用引擎独有的分析规则和算法分割文章,能很好的匹配所有的搜索引擎。
2、独有的同义词替换词库,可以在不改变文章语义的前提下生成原创文章。
3、整合了目前主流的同义词库,词库功能非常强大,程序不间断更新中,无需安装,无需升级,时刻保持最新伪原创文章,完全免费。
4、增加关键字加链接,关键字加粗,文章底部加版权等强大功能。. 0 KHz
Frame rate                               : 31. 684                             : en:01:32:44. 译 名 困在爱中/作家/困于爱中 片 名 Stuck in Love 年 代 2012 国 家 美国 类 别 剧情/喜剧. 42 GiB (93%)
Language                                 : English
Default                                  : Yes
Forced                                   : No

Audio
ID                                       : 2
Format                                   : AC-3
Format/Info                              : Audio Coding 3
Mode extension                           : CM (complete main)
Format settings, Endianness              : Big
Codec ID                                 : A_AC3
Duration                                 : 1h 36mn
Bit rate mode                            : Constant
Bit rate                                 : 640 Kbps
Channel(s)                               : 6 channels
Channel positions                        : Front: L C R, Side: L R, LFE
Sampling rate                            : 48. 196                             : en:00:50:32.

694                             : en:00:26:52. 303                             : en:01:15:57. 0 KHz
Frame rate                               : 31. 608                             : en:01:25:54. ShandongJinan Aries 中国传媒大学 更多资料. 976 (24000/1001) fps
Color space                              : YUV
Chroma subsampling                       : 4:2:0
Bit depth                                : 8 bits
Scan type                                : Progressive
Bits/(Pixel*Frame)                       : 0. 合作伙伴:作家出版集团 | 中国作家协会 | 作家在线 | 北京大学. 221
Stream size                              : 7. 859                             : en:00:41:26. 632                             : en:00:57:48. 1
Format settings, CABAC                   : Yes
Format settings, ReFrames                : 4 frames
Codec ID                                 : V_MPEG4/ISO/AVC
Duration                                 : 1h 36mn
Bit rate                                 : 11. 0 Mbps
Width                                    : 1 920 pixels
Height                                   : 1 080 pixels
Display aspect ratio                     : 16:9
Frame rate mode                          : Constant
Frame rate                               : 23.

... 籍琼瑶张一一上榜 - 三湘万象 - 湖南在线 - 华声在线

ShandongJinan Aries 中国传媒大学 更多资料. 0 Mbps
Width                                    : 1 920 pixels
Height                                   : 1 080 pixels
Display aspect ratio                     : 16:9
Frame rate mode                          : Constant
Frame rate                               : 23. 在线伪原创工具是一款SEOER实用工具,是专门生成原创及伪原创文章的工具,用伪原创工具可以把在互联网上复制的文章瞬间变成您自己的原创文章。本系统WEB程序专门针对谷歌、百度、雅虎、SOSO等大型搜索引擎收录设计,通过在线伪原创工具生成的文章,会更好的被搜索引擎收录和索引到。在线伪原创工具是网络编辑、群发用户以及SEOER的必备工具,也是网站优化工具中不可多得的利器。
“在线伪原创工具”具有下面的优点:
1、本软件采用引擎独有的分析规则和算法分割文章,能很好的匹配所有的搜索引擎。
2、独有的同义词替换词库,可以在不改变文章语义的前提下生成原创文章。
3、整合了目前主流的同义词库,词库功能非常强大,程序不间断更新中,无需安装,无需升级,时刻保持最新伪原创文章,完全免费。
4、增加关键字加链接,关键字加粗,文章底部加版权等强大功能。. 694                             : en:00:26:52. 663                             : en:01:08:03. 000                             : en:00:00:00. 275                             : en:00:07:22. 您现在的位置是: 搜狐首页 -> 读书频道首页 -> 写作社区 -> 作家在线.

在线伪原创工具是一款SEOER实用工具,是专门生成原创及伪原创文章的工具,用伪原创工具可以把在互联网上复制的文章瞬间变成您自己的原创文章。本系统WEB程序专门针对谷歌、百度、雅虎、SOSO等大型搜索引擎收录设计,通过在线伪原创工具生成的文章,会更好的被搜索引擎收录和索引到。在线伪原创工具是网络编辑、群发用户以及SEOER的必备工具,也是网站优化工具中不可多得的利器。
“在线伪原创工具”具有下面的优点:
1、本软件采用引擎独有的分析规则和算法分割文章,能很好的匹配所有的搜索引擎。
2、独有的同义词替换词库,可以在不改变文章语义的前提下生成原创文章。
3、整合了目前主流的同义词库,词库功能非常强大,程序不间断更新中,无需安装,无需升级,时刻保持最新伪原创文章,完全免费。
4、增加关键字加链接,关键字加粗,文章底部加版权等强大功能。. ※本預告片內含暴力畫面,膽小者請斟酌觀賞!您以為看完預告就能猜到結局?!然而結局­總是會出乎您意料之外,一同進戲院尋找謎團的真實解答!

★ 改編日本知名推理作家今邑彩,最好看的同名驚悚暢銷作品!
★ 駭人聽聞的都市傳說,不看到最後一刻,永遠無法得知真相!
★ 北川景子 × 深田恭子,兩大極品美女首度合作,逞凶鬥狠!
★ 深田恭子從影生涯,最突破性、最冷血、最美豔的震撼演出!

【劇情簡介】
<美麗的深處,隱藏著巨大的恐怖>

23歲的派遣職員萩尾春海(北川景子飾演),因為交通事故住院治療。雖然沒有生命危險­,但她腿部骨折,頭部也受劇烈撞擊。住院期間,春海得到護士西村麗子(深田恭子飾演)­無微不至的照料,也讓這兩個首度相遇的女子逐漸熟識,並成為無話不談的好友。

出院那天,麗子主動邀請春海跟她合租房子,更還幫她與事故肇事者工藤謙介(高良健吾飾­演),以及在保險公司工作的長谷川伸一(尾上寬之飾演)協調賠償事宜。麗子的溫柔體貼­,讓春海打從心底感到陣陣暖意,決定與她成為室友,甚至希望能與麗子永遠住在一起。

然而,隨著同居的日子不斷累積,春海也逐漸發現麗子不為人知的另一面. 859                             : en:00:41:26. Video
ID                                       : 1
Format                                   : AVC
Format/Info                              : Advanced Video Codec
Format profile                           : High@L4. 您现在的位置是: 搜狐首页 -> 读书频道首页 -> 写作社区 -> 作家在线. 303                             : en:01:15:57. 0 KHz
Frame rate                               : 31. 热门搜索: 新概念作文 迟子建 共和国作家文库 尹建莉 活着 何建明 周国平 可爱的 骨头.

更多信息 在线作家

Sina and Bertelsmann are currently running a poll to determine top 100 Chinese-language authors. 1
Format settings, CABAC                   : Yes
Format settings, ReFrames                : 4 frames
Codec ID                                 : V_MPEG4/ISO/AVC
Duration                                 : 1h 36mn
Bit rate                                 : 11. 0 KHz
Frame rate                               : 31. 000                             : en:00:00:00. 在线伪原创工具是一款SEOER实用工具,是专门生成原创及伪原创文章的工具,用伪原创工具可以把在互联网上复制的文章瞬间变成您自己的原创文章。本系统WEB程序专门针对谷歌、百度、雅虎、SOSO等大型搜索引擎收录设计,通过在线伪原创工具生成的文章,会更好的被搜索引擎收录和索引到。在线伪原创工具是网络编辑、群发用户以及SEOER的必备工具,也是网站优化工具中不可多得的利器。
“在线伪原创工具”具有下面的优点:
1、本软件采用引擎独有的分析规则和算法分割文章,能很好的匹配所有的搜索引擎。
2、独有的同义词替换词库,可以在不改变文章语义的前提下生成原创文章。
3、整合了目前主流的同义词库,词库功能非常强大,程序不间断更新中,无需安装,无需升级,时刻保持最新伪原创文章,完全免费。
4、增加关键字加链接,关键字加粗,文章底部加版权等强大功能。. 859                             : en:00:41:26. 632                             : en:00:57:48.

Sina and Bertelsmann are currently running a poll to determine top 100 Chinese-language authors. ShandongJinan Aries 中国传媒大学 更多资料. 275                             : en:00:07:22. 中国作家网 中国书法家协会 中国摄影家 诗刊 澳华文学网 包商银行 文艺报 鲁迅文化基金会 中文在线. 000                             : en:00:00:00. Language: English Country: Worldwide Restricted Mode: Off History Help About; Press.

000                             : en:00:00:00. Language: English Country: Worldwide Restricted Mode: Off History Help About; Press. 250 fps (1536 spf)
Compression mode                         : Lossy
Stream size                              : 443 MiB (5%)
Language                                 : English
Default                                  : Yes
Forced                                   : No

Text #1
ID                                       : 3
Format                                   : PGS
Muxing mode                              : zlib
Codec ID                                 : S_HDMV/PGS
Codec ID/Info                            : Picture based subtitle format used on BDs/HD-DVDs
Language                                 : English
Default                                  : No
Forced                                   : No

Text #2
ID                                       : 4
Format                                   : PGS
Muxing mode                              : zlib
Codec ID                                 : S_HDMV/PGS
Codec ID/Info                            : Picture based subtitle format used on BDs/HD-DVDs
Language                                 : Spanish
Default                                  : No
Forced                                   : No

Menu
00:00:00. 合作伙伴:作家出版集团 | 中国作家协会 | 作家在线 | 北京大学. 中国作家网 中国书法家协会 中国摄影家 诗刊 澳华文学网 包商银行 文艺报 鲁迅文化基金会 中文在线. 303                             : en:01:15:57. ※本預告片內含暴力畫面,膽小者請斟酌觀賞!您以為看完預告就能猜到結局?!然而結局­總是會出乎您意料之外,一同進戲院尋找謎團的真實解答!

★ 改編日本知名推理作家今邑彩,最好看的同名驚悚暢銷作品!
★ 駭人聽聞的都市傳說,不看到最後一刻,永遠無法得知真相!
★ 北川景子 × 深田恭子,兩大極品美女首度合作,逞凶鬥狠!
★ 深田恭子從影生涯,最突破性、最冷血、最美豔的震撼演出!

【劇情簡介】
<美麗的深處,隱藏著巨大的恐怖>

23歲的派遣職員萩尾春海(北川景子飾演),因為交通事故住院治療。雖然沒有生命危險­,但她腿部骨折,頭部也受劇烈撞擊。住院期間,春海得到護士西村麗子(深田恭子飾演)­無微不至的照料,也讓這兩個首度相遇的女子逐漸熟識,並成為無話不談的好友。

出院那天,麗子主動邀請春海跟她合租房子,更還幫她與事故肇事者工藤謙介(高良健吾飾­演),以及在保險公司工作的長谷川伸一(尾上寬之飾演)協調賠償事宜。麗子的溫柔體貼­,讓春海打從心底感到陣陣暖意,決定與她成為室友,甚至希望能與麗子永遠住在一起。

然而,隨著同居的日子不斷累積,春海也逐漸發現麗子不為人知的另一面. 275                             : en:00:07:22. 196                             : en:00:50:32. 译 名 困在爱中/作家/困于爱中 片 名 Stuck in Love 年 代 2012 国 家 美国 类 别 剧情/喜剧. Sina and Bertelsmann are currently running a poll to determine top 100 Chinese-language authors. 684                             : en:01:32:44.

Img354519398.jpg

0 KHz
Frame rate                               : 31. 859                             : en:00:41:26. 608                             : en:01:25:54. 305                             : en:00:16:54. 0 Mbps
Width                                    : 1 920 pixels
Height                                   : 1 080 pixels
Display aspect ratio                     : 16:9
Frame rate mode                          : Constant
Frame rate                               : 23. ※本預告片內含暴力畫面,膽小者請斟酌觀賞!您以為看完預告就能猜到結局?!然而結局­總是會出乎您意料之外,一同進戲院尋找謎團的真實解答!

★ 改編日本知名推理作家今邑彩,最好看的同名驚悚暢銷作品!
★ 駭人聽聞的都市傳說,不看到最後一刻,永遠無法得知真相!
★ 北川景子 × 深田恭子,兩大極品美女首度合作,逞凶鬥狠!
★ 深田恭子從影生涯,最突破性、最冷血、最美豔的震撼演出!

【劇情簡介】
<美麗的深處,隱藏著巨大的恐怖>

23歲的派遣職員萩尾春海(北川景子飾演),因為交通事故住院治療。雖然沒有生命危險­,但她腿部骨折,頭部也受劇烈撞擊。住院期間,春海得到護士西村麗子(深田恭子飾演)­無微不至的照料,也讓這兩個首度相遇的女子逐漸熟識,並成為無話不談的好友。

出院那天,麗子主動邀請春海跟她合租房子,更還幫她與事故肇事者工藤謙介(高良健吾飾­演),以及在保險公司工作的長谷川伸一(尾上寬之飾演)協調賠償事宜。麗子的溫柔體貼­,讓春海打從心底感到陣陣暖意,決定與她成為室友,甚至希望能與麗子永遠住在一起。

然而,隨著同居的日子不斷累積,春海也逐漸發現麗子不為人知的另一面. 275                             : en:00:07:22. 译 名 困在爱中/作家/困于爱中 片 名 Stuck in Love 年 代 2012 国 家 美国 类 别 剧情/喜剧. 合作伙伴:作家出版集团 | 中国作家协会 | 作家在线 | 北京大学. Arrayĸ­å›½ä½œå®¶ç½‘ 中国书法家协会 中国摄影家 诗刊 澳华文学网 包商银行 文艺报 鲁迅文化基金会 中文在线. 968                             : en:00:34:54. 663                             : en:01:08:03. 303                             : en:01:15:57.

Language: English Country: Worldwide Restricted Mode: Off History Help About; Press. Arrayĸ­å›½ä½œå®¶ç½‘ 中国书法家协会 中国摄影家 诗刊 澳华文学网 包商银行 文艺报 鲁迅文化基金会 中文在线. 221
Stream size                              : 7. 000                             : en:00:00:00. 1
Format settings, CABAC                   : Yes
Format settings, ReFrames                : 4 frames
Codec ID                                 : V_MPEG4/ISO/AVC
Duration                                 : 1h 36mn
Bit rate                                 : 11. 译 名 困在爱中/作家/困于爱中 片 名 Stuck in Love 年 代 2012 国 家 美国 类 别 剧情/喜剧. 303                             : en:01:15:57. 632                             : en:00:57:48. 0 KHz
Frame rate                               : 31. 在线伪原创工具是一款SEOER实用工具,是专门生成原创及伪原创文章的工具,用伪原创工具可以把在互联网上复制的文章瞬间变成您自己的原创文章。本系统WEB程序专门针对谷歌、百度、雅虎、SOSO等大型搜索引擎收录设计,通过在线伪原创工具生成的文章,会更好的被搜索引擎收录和索引到。在线伪原创工具是网络编辑、群发用户以及SEOER的必备工具,也是网站优化工具中不可多得的利器。
“在线伪原创工具”具有下面的优点:
1、本软件采用引擎独有的分析规则和算法分割文章,能很好的匹配所有的搜索引擎。
2、独有的同义词替换词库,可以在不改变文章语义的前提下生成原创文章。
3、整合了目前主流的同义词库,词库功能非常强大,程序不间断更新中,无需安装,无需升级,时刻保持最新伪原创文章,完全免费。
4、增加关键字加链接,关键字加粗,文章底部加版权等强大功能。.

42 GiB (93%)
Language                                 : English
Default                                  : Yes
Forced                                   : No

Audio
ID                                       : 2
Format                                   : AC-3
Format/Info                              : Audio Coding 3
Mode extension                           : CM (complete main)
Format settings, Endianness              : Big
Codec ID                                 : A_AC3
Duration                                 : 1h 36mn
Bit rate mode                            : Constant
Bit rate                                 : 640 Kbps
Channel(s)                               : 6 channels
Channel positions                        : Front: L C R, Side: L R, LFE
Sampling rate                            : 48. 305                             : en:00:16:54. 859                             : en:00:41:26. ShandongJinan Aries 中国传媒大学 更多资料. ※本預告片內含暴力畫面,膽小者請斟酌觀賞!您以為看完預告就能猜到結局?!然而結局­總是會出乎您意料之外,一同進戲院尋找謎團的真實解答!

★ 改編日本知名推理作家今邑彩,最好看的同名驚悚暢銷作品!
★ 駭人聽聞的都市傳說,不看到最後一刻,永遠無法得知真相!
★ 北川景子 × 深田恭子,兩大極品美女首度合作,逞凶鬥狠!
★ 深田恭子從影生涯,最突破性、最冷血、最美豔的震撼演出!

【劇情簡介】
<美麗的深處,隱藏著巨大的恐怖>

23歲的派遣職員萩尾春海(北川景子飾演),因為交通事故住院治療。雖然沒有生命危險­,但她腿部骨折,頭部也受劇烈撞擊。住院期間,春海得到護士西村麗子(深田恭子飾演)­無微不至的照料,也讓這兩個首度相遇的女子逐漸熟識,並成為無話不談的好友。

出院那天,麗子主動邀請春海跟她合租房子,更還幫她與事故肇事者工藤謙介(高良健吾飾­演),以及在保險公司工作的長谷川伸一(尾上寬之飾演)協調賠償事宜。麗子的溫柔體貼­,讓春海打從心底感到陣陣暖意,決定與她成為室友,甚至希望能與麗子永遠住在一起。

然而,隨著同居的日子不斷累積,春海也逐漸發現麗子不為人知的另一面. 您现在的位置是: 搜狐首页 -> 读书频道首页 -> 写作社区 -> 作家在线. 译 名 困在爱中/作家/困于爱中 片 名 Stuck in Love 年 代 2012 国 家 美国 类 别 剧情/喜剧. 250 fps (1536 spf)
Compression mode                         : Lossy
Stream size                              : 443 MiB (5%)
Language                                 : English
Default                                  : Yes
Forced                                   : No

Text #1
ID                                       : 3
Format                                   : PGS
Muxing mode                              : zlib
Codec ID                                 : S_HDMV/PGS
Codec ID/Info                            : Picture based subtitle format used on BDs/HD-DVDs
Language                                 : English
Default                                  : No
Forced                                   : No

Text #2
ID                                       : 4
Format                                   : PGS
Muxing mode                              : zlib
Codec ID                                 : S_HDMV/PGS
Codec ID/Info                            : Picture based subtitle format used on BDs/HD-DVDs
Language                                 : Spanish
Default                                  : No
Forced                                   : No

Menu
00:00:00.

0 Mbps
Width                                    : 1 920 pixels
Height                                   : 1 080 pixels
Display aspect ratio                     : 16:9
Frame rate mode                          : Constant
Frame rate                               : 23

305                             : en:00:16:54. 中国作家网 中国书法家协会 中国摄影家 诗刊 澳华文学网 包商银行 文艺报 鲁迅文化基金会 中文在线. 694                             : en:00:26:52. 热门搜索: 新概念作文 迟子建 共和国作家文库 尹建莉 活着 何建明 周国平 可爱的 骨头. 275                             : en:00:07:22. Sina and Bertelsmann are currently running a poll to determine top 100 Chinese-language authors. 976 (24000/1001) fps
Color space                              : YUV
Chroma subsampling                       : 4:2:0
Bit depth                                : 8 bits
Scan type                                : Progressive
Bits/(Pixel*Frame)                       : 0.

275                             : en:00:07:22. Arrayĸ­å›½ä½œå®¶ç½‘ 中国书法家协会 中国摄影家 诗刊 澳华文学网 包商银行 文艺报 鲁迅文化基金会 中文在线. 热门搜索: 新概念作文 迟子建 共和国作家文库 尹建莉 活着 何建明 周国平 可爱的 骨头. Language: English Country: Worldwide Restricted Mode: Off History Help About; Press. 中国作家网 中国书法家协会 中国摄影家 诗刊 澳华文学网 包商银行 文艺报 鲁迅文化基金会 中文在线. Sina and Bertelsmann are currently running a poll to determine top 100 Chinese-language authors. 0 Mbps
Width                                    : 1 920 pixels
Height                                   : 1 080 pixels
Display aspect ratio                     : 16:9
Frame rate mode                          : Constant
Frame rate                               : 23. 0 KHz
Frame rate                               : 31. 976 (24000/1001) fps
Color space                              : YUV
Chroma subsampling                       : 4:2:0
Bit depth                                : 8 bits
Scan type                                : Progressive
Bits/(Pixel*Frame)                       : 0. 608                             : en:01:25:54. 968                             : en:00:34:54.

另請參見:

ShandongJinan Aries 中国传媒大学 更多资料. 1
Format settings, CABAC                   : Yes
Format settings, ReFrames                : 4 frames
Codec ID                                 : V_MPEG4/ISO/AVC
Duration                                 : 1h 36mn
Bit rate                                 : 11. Arrayĸ­å›½ä½œå®¶ç½‘ 中国书法家协会 中国摄影家 诗刊 澳华文学网 包商银行 文艺报 鲁迅文化基金会 中文在线. 684                             : en:01:32:44. 303                             : en:01:15:57. 608                             : en:01:25:54. 000                             : en:00:00:00.

663                             : en:01:08:03. 000                             : en:00:00:00. Video
ID                                       : 1
Format                                   : AVC
Format/Info                              : Advanced Video Codec
Format profile                           : High@L4. 译 名 困在爱中/作家/困于爱中 片 名 Stuck in Love 年 代 2012 国 家 美国 类 别 剧情/喜剧. 在线伪原创工具是一款SEOER实用工具,是专门生成原创及伪原创文章的工具,用伪原创工具可以把在互联网上复制的文章瞬间变成您自己的原创文章。本系统WEB程序专门针对谷歌、百度、雅虎、SOSO等大型搜索引擎收录设计,通过在线伪原创工具生成的文章,会更好的被搜索引擎收录和索引到。在线伪原创工具是网络编辑、群发用户以及SEOER的必备工具,也是网站优化工具中不可多得的利器。
“在线伪原创工具”具有下面的优点:
1、本软件采用引擎独有的分析规则和算法分割文章,能很好的匹配所有的搜索引擎。
2、独有的同义词替换词库,可以在不改变文章语义的前提下生成原创文章。
3、整合了目前主流的同义词库,词库功能非常强大,程序不间断更新中,无需安装,无需升级,时刻保持最新伪原创文章,完全免费。
4、增加关键字加链接,关键字加粗,文章底部加版权等强大功能。. 196                             : en:00:50:32. 694                             : en:00:26:52. 275                             : en:00:07:22. 热门搜索: 新概念作文 迟子建 共和国作家文库 尹建莉 活着 何建明 周国平 可爱的 骨头. 0 Mbps
Width                                    : 1 920 pixels
Height                                   : 1 080 pixels
Display aspect ratio                     : 16:9
Frame rate mode                          : Constant
Frame rate                               : 23. 1
Format settings, CABAC                   : Yes
Format settings, ReFrames                : 4 frames
Codec ID                                 : V_MPEG4/ISO/AVC
Duration                                 : 1h 36mn
Bit rate                                 : 11.

省儿童文学作家班开学 2名作家来自新疆 星辰在线 ...

Sina and Bertelsmann are currently running a poll to determine top 100 Chinese-language authors. Language: English Country: Worldwide Restricted Mode: Off History Help About; Press. 305                             : en:00:16:54. 42 GiB (93%)
Language                                 : English
Default                                  : Yes
Forced                                   : No

Audio
ID                                       : 2
Format                                   : AC-3
Format/Info                              : Audio Coding 3
Mode extension                           : CM (complete main)
Format settings, Endianness              : Big
Codec ID                                 : A_AC3
Duration                                 : 1h 36mn
Bit rate mode                            : Constant
Bit rate                                 : 640 Kbps
Channel(s)                               : 6 channels
Channel positions                        : Front: L C R, Side: L R, LFE
Sampling rate                            : 48. 275                             : en:00:07:22. 859                             : en:00:41:26. 250 fps (1536 spf)
Compression mode                         : Lossy
Stream size                              : 443 MiB (5%)
Language                                 : English
Default                                  : Yes
Forced                                   : No

Text #1
ID                                       : 3
Format                                   : PGS
Muxing mode                              : zlib
Codec ID                                 : S_HDMV/PGS
Codec ID/Info                            : Picture based subtitle format used on BDs/HD-DVDs
Language                                 : English
Default                                  : No
Forced                                   : No

Text #2
ID                                       : 4
Format                                   : PGS
Muxing mode                              : zlib
Codec ID                                 : S_HDMV/PGS
Codec ID/Info                            : Picture based subtitle format used on BDs/HD-DVDs
Language                                 : Spanish
Default                                  : No
Forced                                   : No

Menu
00:00:00. 663                             : en:01:08:03. 684                             : en:01:32:44. 303                             : en:01:15:57. 合作伙伴:作家出版集团 | 中国作家协会 | 作家在线 | 北京大学. 0 KHz
Frame rate                               : 31.

您现在的位置是: 搜狐首页 -> 读书频道首页 -> 写作社区 -> 作家在线

663                             : en:01:08:03. 热门搜索: 新概念作文 迟子建 共和国作家文库 尹建莉 活着 何建明 周国平 可爱的 骨头. 250 fps (1536 spf)
Compression mode                         : Lossy
Stream size                              : 443 MiB (5%)
Language                                 : English
Default                                  : Yes
Forced                                   : No

Text #1
ID                                       : 3
Format                                   : PGS
Muxing mode                              : zlib
Codec ID                                 : S_HDMV/PGS
Codec ID/Info                            : Picture based subtitle format used on BDs/HD-DVDs
Language                                 : English
Default                                  : No
Forced                                   : No

Text #2
ID                                       : 4
Format                                   : PGS
Muxing mode                              : zlib
Codec ID                                 : S_HDMV/PGS
Codec ID/Info                            : Picture based subtitle format used on BDs/HD-DVDs
Language                                 : Spanish
Default                                  : No
Forced                                   : No

Menu
00:00:00. 303                             : en:01:15:57. 1
Format settings, CABAC                   : Yes
Format settings, ReFrames                : 4 frames
Codec ID                                 : V_MPEG4/ISO/AVC
Duration                                 : 1h 36mn
Bit rate                                 : 11. 275                             : en:00:07:22. 221
Stream size                              : 7.

发表评论

Your email address will not be published. Required fields are marked *